#TITLE:Elpis;
#SUBTITLE:SDOIC 2015;
#ARTIST:DJ Taka;
#TITLETRANSLIT:;
#SUBTITLETRANSLIT:;
#ARTISTTRANSLIT:;
#CREDIT:;
#BANNER:bn.png;
#BACKGROUND:bg.png;
#LYRICSPATH:;
#CDTITLE:;
#MUSIC:dj TAKA - Elpis.mp3;
#OFFSET:0.000;
#SAMPLESTART:100.000;
#SAMPLELENGTH:12.000;
#SELECTABLE:YES;
#BPMS:0.000=175.000;
#STOPS:;
#BGCHANGES:;
// cache tags:
#FIRSTBEAT:0.750;
#LASTBEAT:357.250;
#SONGFILENAME:Songs/Super Dancer Online/Elpis/dj TAKA - Elpis.sm;
#HASMUSIC:1;
#HASBANNER:1;
#MUSICLENGTH:133.041;
// end cache tags

//---------------dance-single - Blank----------------
#NOTES:
     dance-single:
     Blank:
     Hard:
     26:
     1.000,1.000,1.000,0.466,1.000,1095.000,328.000,62.000,0.000,66.000:

0000
0000
0000
1000
0000
0000
1001
0100
0010
1000
0001
0010
0100
1000
0010
0001
,
1000
0010
1000
0100
0010
0001
1000
0100
0010
1000
0001
0010
0100
1000
0010
0001
,
1000
0010
1000
0100
0010
0001
1000
0010
0100
1000
0001
0010
0100
1000
0010
0001
,
1000
0010
1000
0001
0100
0010
1000
0100
0010
1000
0001
0010
0100
1000
0010
0001
,
1000
0010
1000
0001
0010
0100
1001
0100
0010
1000
0101
0010
0100
1001
0010
0001
,
1100
0010
1001
0100
0010
0001
1010
0100
0010
1000
0101
0010
0100
1001
0010
0001
,
1100
0001
1010
0001
0100
0010
1001
0100
0010
1000
0101
0010
0100
1001
0010
0001
,
1100
0001
1010
0001
0100
0001
1100
0010
0100
1000
0101
0010
0100
1010
0001
0010
,
0101
0000
0001
0010
0100
1000
0112
0000
0113
0000
0021
1000
0130
0010
0001
0010
,
0100
1000
0011
0100
1000
0100
0010
1000
0100
0010
1001
0010
0100
1000
0001
0100
,
0010
0001
0000
0010
0100
1000
0001
0010
0001
0100
0010
1000
0001
0100
0010
1000
,
0100
0010
0001
1000
0010
0100
0001
0010
0100
1000
0100
0010
0100
1000
0001
0010
,
0100
0011
1000
0100
0010
1001
0100
0010
0001
1100
0010
0100
1000
0010
0001
0010
,
0001
1100
0001
0010
0100
1001
0100
0010
0001
1100
0010
0100
1000
0001
0010
0100
,
1000
0011
1000
0100
0010
1001
0010
0001
0100
1020
0000
0131
0010
1001
0010
0102
,
0000
1013
0100
0010
0100
1002
0000
0013
0100
0011
1000
0100
0001
1010
0100
1000
,
0001
1100
0010
1100
0010
1001
0100
1000
0010
0101
0010
1000
0100
1000
0001
0010
,
0001
1100
0010
0100
0000
1001
0100
0010
0001
1100
0010
0100
1000
0010
0001
0010
,
0001
1100
0010
0100
1000
0001
0010
0001
0100
1010
0100
0001
0010
0001
1000
0100
,
1000
0011
0100
0010
1000
0001
0010
0100
1000
0011
0100
0010
0001
0100
1000
0010
,
0100
0011
0100
0001
0100
1001
0010
0100
1000
0011
1000
0100
1000
0010
0001
0010
,
0001
1100
0010
0100
0010
1001
0100
1000
0100
0011
1000
0100
1000
0001
0010
0100
,
1000
0011
0100
0010
0100
1001
0010
0001
0010
0102
0000
1013
0100
1000
0100
2010
,
0000
3101
0010
0100
0010
1002
0000
0013
0100
0011
1000
0100
0010
0001
1000
0100
,
0010
1001
0110
1001
0110
2002
0000
0000
0000
0000
0000
0000
0000
0000
0000
0000
,
0000
0000
0000
0000
0000
0003
0000
0000
0000
0200
0000
0000
0000
0000
0000
0000
,
0000
0000
0000
3000
0000
0000
0000
0002
0000
0000
0000
0000
0000
0000
0000
0000
,
0000
0000
0000
0300
0000
0000
0000
0020
0000
0000
0000
0000
0000
0000
0000
0000
,
0000
0003
0000
0000
0000
1131
0000
0100
0000
0010
0000
0002
0000
0000
0000
0103
,
0000
0010
0000
1000
0000
0100
0000
0000
1000
1000
0000
0000
0000
0011
0000
0000
,
0000
0110
0000
0000
0000
2001
0000
0100
0000
3010
0000
0001
0000
1010
0000
0001
,
0000
0010
0000
0100
0000
1002
0000
0000
0000
0213
0000
0000
0000
1302
0000
0000
,
0000
1023
0000
0000
0000
1030
0001
0100
0010
1000
1000
0001
0010
0100
1000
0010
,
0100
0001
0010
0100
1000
0010
0001
0100
0010
1000
0100
0010
0001
0100
1000
0010
,
0100
0001
1000
0010
0100
1010
0000
0100
0000
0010
0000
1002
0000
0000
0000
2013
,
0000
0000
0000
3011
0000
0100
0000
1000
0000
0010
0001
0000
0000
1010
0000
0000
,
0000
0110
0000
0000
0000
1011
0000
0100
0000
0010
0000
0002
0000
0000
0000
0103
,
0000
0010
0000
0100
0000
0001
0000
0100
0000
1000
1000
0000
0000
0101
0000
0000
,
0000
1010
0000
0000
0000
2001
0000
0100
0000
3010
0000
0001
0000
1010
0000
0001
,
0000
0010
0000
0100
0000
2000
0000
0001
0000
3201
0010
0000
0000
0321
1000
0000
,
0000
1031
0100
0000
0000
1001
0100
0010
0001
0100
1000
0010
0100
0001
0010
0100
,
1000
0010
0001
0100
0010
1000
0100
0010
0001
0100
1000
0010
0100
0001
0010
0100
,
1000
0010
0001
0100
0010
1001
0000
0100
0000
0010
0000
1002
0000
0000
0000
1023
,
0000
0000
0000
1031
0000
0011
0000
0100
0000
0001
1000
0000
0000
1010
0000
0000
,
0000
0110
0000
0100
0000
0011
0000
1000
0000
0010
0000
1000
0000
0101
0000
0000
,
0000
0011
0000
0010
0000
1001
0000
0000
0000
0100
0001
0000
0000
0011
0100
1000
,
0100
1000
0100
1000
0010
1001
0100
0000
0010
1100
0010
0000
0100
1001
0100
0000
,
0100
0011
0100
0000
0010
1010
1000
0000
0001
0011
0010
0000
0100
1100
1000
0001
,
1000
1001
0001
1000
0110
1001
0100
0010
0001
0100
1000
0100
0010
1000
0100
0010
,
0001
0100
1000
0100
0010
1001
0000
0110
0001
1020
0100
1001
0100
1030
0100
1001
,
0010
1100
0001
0110
0001
1010
0000
0101
0010
1010
0100
0011
0100
1001
0010
0101
,
0010
1100
0001
0110
0001
1100
0010
0101
0010
1100
0000
0011
0100
2001
0000
0110
,
0000
3001
0100
0011
0100
1001
0100
0010
0001
1100
0001
0110
0001
1100
0001
0010
,
0100
1001
0010
0100
0010
1001
0000
0110
0001
1010
0100
0011
0100
1001
0010
0102
,
0010
1100
0010
1103
0010
1001
0100
0010
0001
1100
0010
0101
0010
1100
0001
0110
,
0001
1100
0010
0101
0010
1001
0100
0011
0100
1010
0001
0110
0001
1010
0100
0011
,
0100
1001
0010
0101
0010
0100
1000
0001
1000
0100
0010
0002
0000
0103
0001
1000
,
0010
0100
0001
1000
0010
1001
0100
0011
0100
1010
0100
0011
0100
1001
0100
0011
,
0100
1010
0100
0011
0100
1001
0010
0101
0010
1100
0010
0101
0010
1100
0001
0110
,
0001
1010
0100
0011
0100
1001
0010
0101
0010
1100
0001
0110
0001
1010
0100
0010
,
0001
1010
0001
0010
0100
1001
0010
0101
0010
1100
0010
0101
0010
1001
0100
0011
,
0100
1010
0100
0011
0100
1001
0010
0101
0010
1100
0001
0110
0001
1010
0100
0011
,
0100
1020
0001
1130
0001
1100
0010
0101
0010
1100
0001
0110
0001
1010
0100
0011
,
0100
1001
0010
0101
0010
1001
0100
0000
0010
1100
0010
0000
0100
1001
0010
1000
,
0100
1010
0100
1000
0010
1001
0100
0100
1000
1100
0000
0010
0001
0011
0000
0010
,
0001
0000
1000
0001
0000
2002
0000
0000
0000
0000
0000
3013
0001
1010
0100
0011
,
0100
1001
0010
0101
0010
1001
0100
0010
0001
1010
0000
0101
0010
1100
0001
0110
,
0001
1010
0100
0011
0100
1001
0110
0000
0110
1001
0110
0000
0110
1000
1000
0010
,
0010
0100
0100
0010
0010
0001
0001
0010
0100
1000
1000
0101
0000
2022
0000
3033
,
0000
1010
0001
0010
0100
1001
0010
0101
1000
0101
1000
0110
0001
2010
0100
3011
,
0100
1010
0001
0110
0001
1100
0010
0101
0010
1100
0001
0110
0001
1010
0100
0011
,
0100
1001
0010
0101
0010
1001
0100
0010
0001
1010
0100
0010
0001
1010
0001
0010
,
1000
0002
0000
0103
0010
1001
0100
0010
0001
1011
0100
1000
0001
1020
0000
1100
,
0000
1031
0000
1110
0000
2012
0000
0100
0010
0100
3013
0100
1000
0012
0000
0100
,
1000
1013
0000
0101
0000
1012
0100
0010
0100
1013
0000
0101
0000
1012
0100
0023
,
0100
2031
0010
3200
0010
1301
0000
1000
0010
0110
0000
1000
0001
0101
0000
1000
,
0100
0110
0000
1000
0001
0011
0000
1100
0010
1101
0000
0100
0010
1011
0000
0101
,
0010
1101
0010
1001
0100
1021
0000
0100
1000
0101
1000
0031
0100
1001
0000
0100
,
0010
1011
0000
0101
0000
1021
0000
1000
0100
1031
0000
0110
0000
1101
0000
0011
,
0000
1010
0000
0101
0000
1011
0100
0020
0100
1001
0000
2130
0001
0110
0000
3102
,
1000
1100
0000
0123
1000
1100
0000
0131
0010
1101
0000
0120
1000
1000
0131
2010
,
0101
0000
0000
3101
0000
1011
0000
0100
0000
0010
0000
0001
0000
0100
0000
0010
,
1000
0110
0000
0001
0000
2100
0000
0100
0000
3010
0000
0200
0000
0010
0000
0301
,
0000
0001
0000
0100
0000
0101
0000
0001
0000
0102
0000
0010
0000
1013
0000
1000
,
0000
2010
0000
0100
0000
3110
0000
0010
0000
0120
0000
0001
0000
1030
0000
0100
,
1000
0110
0000
0001
0000
1000
0000
0000
0000
0000
0000
1000
0000
0001
0000
0010
,
0100
1010
0000
0100
0000
0001
0000
0010
0000
0100
0000
1000
0000
0000
0000
0001
,
0000
0010
0000
0001
0000
1001
0000
1000
0000
0100
0000
0010
0000
0110
0000
0100
,
0000
0010
0000
0001
0000
0101
0000
0100
0000
1000
0000
0100
0000
0001
0000
0010
,
0001
1001
0000
1000
0000
0100
0000
0000
0000
0000
0000
0000
0000
0000
0000
0000
;
